#TITLE:STRIKE IT UP;
#SUBTITLE:;
#ARTIST:Black Box;
#TITLETRANSLIT:;
#SUBTITLETRANSLIT:;
#ARTISTTRANSLIT:;
#CREDIT:;
#BANNER:Strike Up-banner.png;
#BACKGROUND:Strike Up-bg.png;
#LYRICSPATH:;
#CDTITLE:;
#MUSIC:Strike It Up.mp3;
#MUSICLENGTH:78.497;
#OFFSET:-0.020;
#SAMPLESTART:19.565;
#SAMPLELENGTH:12.000;
#SELECTABLE:YES;
#BPMS:0.000=118.900;
#STOPS:;
#BGCHANGES:;
#FIRSTBEAT:8.000;

#LASTBEAT:155.000;

#SONGFILENAME:Songs/ERICth MIX 2nd Style/Strike It Up/Strike It Up.sm;

#HASMUSIC:1;

#HASBANNER:1;


//---------------dance-single - MANIAC----------------
#NOTES:
     dance-single:
     MANIAC:
     hard:
     7:
     0.369,0.420,0.318,0.038,0.115,175.000,25.000,3.000,0.000,0.000:

0000
0000
0000
0000
,
0000
0000
0000
0000
,
2000
0000
3000
0000
,
0000
0000
0000
0000
,
0002
0000
0003
0000
,
1000
0001
1000
0001
,
0010
0000
0010
0000
0010
0000
1000
0100
,
0000
0000
0010
0000
0000
0010
0000
0000
0010
0000
0000
0010
0000
0001
1000
0000
,
0100
0100
0100
0000
,
0010
0000
0000
0000
0100
0000
0000
0000
0010
0000
0000
0000
0100
0000
0100
1000
,
0000
0000
1001
0000
0010
0100
0001
1000
,
0010
0000
0000
0100
0000
0000
0010
0000
0000
0000
0000
0000
1000
0000
0001
1000
,
0000
0110
1001
0000
1000
0001
1000
0000
,
1000
0000
0001
0000
1000
0000
0001
0010
0000
0000
0000
0000
0100
0000
0100
1000
,
0000
0000
1001
0000
0010
0100
0001
1000
,
0010
0000
0000
0100
0000
0000
0010
0000
0000
0000
0000
0000
1000
0000
0001
1000
,
0000
0110
1001
0000
1000
0001
1000
0000
,
1000
0000
0000
0001
0000
0000
2000
0000
0000
0000
3000
0000
0000
0000
0000
0000
,
0001
0010
0000
0100
0001
0000
0000
0000
,
1000
0010
0000
0100
1000
0000
0000
0000
,
0010
0100
0000
0100
0010
0000
0000
0000
,
0010
0001
0000
0001
1000
0000
0000
0000
,
1000
0001
0000
0100
0010
0000
0000
0000
,
1000
0010
0000
0010
0001
0000
0000
0000
,
0001
1000
0000
1000
0100
0000
0000
0000
,
0100
1000
0001
1000
0010
0000
0000
0000
,
0100
1000
0010
0100
0010
0100
0001
0010
,
1000
0100
0010
0100
0001
0100
1000
0010
,
1000
0001
1000
0100
0010
0001
1000
0010
,
0100
0001
1000
0010
1000
0100
0010
0000
,
0011
0000
1000
0100
0000
0000
0000
0000
0000
0000
0000
0000
0100
0000
0000
0000
,
1100
0101
0011
1010
,
0010
0000
1000
0100
0000
0000
0000
0000
0000
0000
0000
0000
0010
0000
0000
0000
,
1001
0110
1001
0110
,
1100
0000
0010
0001
0000
0000
0000
0000
0000
0000
0000
0000
0010
0000
0000
0000
,
1010
0011
0101
1100
,
0110
0000
1000
0001
0000
0000
0000
0000
0000
0000
0000
0000
0001
0000
0000
0000
,
1010
0101
1010
0101
,
1000
0000
0010
0001
1000
0000
0010
0001
1000
0000
0010
0001
1000
0000
0000
0000;

//---------------dance-single - ANOTHER----------------
#NOTES:
     dance-single:
     ANOTHER:
     medium:
     5:
     0.291,0.272,0.051,0.000,0.000,156.000,4.000,0.000,0.000,0.000:

0000
0000
0000
0000
,
0000
0000
0000
0000
,
0001
0000
1000
0000
0001
0001
0000
0001
,
0000
0001
0000
1000
0100
0010
0000
0001
,
1000
0000
0100
0000
0010
0000
0001
0001
,
0000
1000
0000
0000
0001
0000
0001
0000
,
1000
0000
0100
0000
0010
0000
0100
1000
,
0000
0001
0000
0001
0001
0000
0100
1000
,
0010
0001
0100
0010
,
0100
0100
0100
0110
,
1001
0100
0010
0001
,
1000
0000
0100
0000
0010
0000
0001
0001
,
1000
0001
1000
0001
,
0100
0010
0100
0010
0100
0000
0001
0000
,
1000
0001
0001
0000
1000
0000
0100
0000
,
0010
0001
1000
0010
,
1000
0001
1000
0000
0100
0000
0000
0000
,
0010
0000
0010
0010
0000
0000
0000
0010
,
0010
0000
1000
0000
0001
0000
0000
0010
,
0010
0000
0001
0000
1000
0000
0000
0010
,
0010
0000
1000
0000
0001
0000
0000
0010
,
0010
1000
0001
0001
,
0010
0010
0000
0000
0001
0000
0100
0000
,
0010
0010
0000
0000
0100
0000
1000
0000
,
0010
0010
0000
0000
0100
0000
0001
0000
,
0010
0010
0000
0000
1000
0000
0100
0000
,
0010
0010
0000
0000
0000
0000
0100
0000
,
0100
0100
0000
0000
0000
0000
0001
0000
,
0100
0100
0000
0000
0000
0000
1000
0000
,
0100
0100
0000
0000
0000
0000
1001
0000
,
0100
0000
0010
0000
1000
0000
0001
0001
,
0001
1000
0100
0010
,
0001
1000
0001
0000
0000
0000
0001
0000
,
1000
0001
1000
0100
,
0010
0000
0001
0000
0010
0000
0001
0001
,
0000
0000
1000
0000
0001
0000
0010
0100
,
1000
0001
0100
0010
,
0100
0000
0001
0001
0001
0000
1000
0000
,
0100
0000
0010
0000
0100
0001
1001
0000;

//---------------dance-single - BASIC----------------
#NOTES:
     dance-single:
     BASIC:
     easy:
     4:
     0.180,0.222,0.115,0.051,0.000,86.000,9.000,4.000,0.000,0.000:

0000
0000
0000
0000
,
0000
0000
0000
0000
,
0011
0000
0100
0010
,
0000
0000
0100
0010
,
0011
0000
0100
0010
,
0000
0000
0000
0000
,
1100
0000
0100
0010
,
1100
0000
0000
0100
,
1100
0000
0100
0010
,
0000
0001
1000
0001
,
0100
0000
0010
0100
,
0000
0001
0000
0000
,
0000
0001
1000
0000
,
0010
0100
0000
0001
,
1000
0000
0100
0010
,
0000
0000
0001
1000
,
0000
0100
0010
0000
,
0000
0000
0001
1000
,
0001
0000
0000
0101
,
0100
0000
0000
0100
,
0010
1010
0000
0100
,
0001
0000
0000
0001
,
0010
0000
0000
0000
,
0010
1000
0000
0011
,
0000
0100
0000
0100
,
0100
0100
0010
0010
,
0000
0000
0000
0001
,
0000
1000
0000
0001
,
1000
0010
0000
0001
,
0000
0100
0100
0100
,
0020
0000
0000
0030
,
0100
0100
0100
0100
,
0020
0000
0000
0030
,
0001
0001
0001
0001
,
0020
0000
0000
0030
,
1000
1000
1000
1000
,
0020
0000
0000
0030
,
0100
0100
0100
0100
,
0000
0000
0000
1001;
